Informations

Bookmark this torrent
Seeds2
Peers5
Taille880.45 MB
Age2 années ago
DateSaturday 04 February 2012
Commentaires0
CatégorieFilms > Action
Hash351b35f0f0b477f480cee036c144124491ddba8b
Signalé Faux (0) Mot de passe (0) Mauvaise qualité (0) Virus (0) Offensif (0) Spam (0) Vrai Torrent (0)
Favoris

Description

Chronicle (2012)

Format : AVI
Format/Info : Audio Video Interleave
Format profile : OpenDML
File size : 880 MiB
Duration : 1h 49mn
Overall bit rate : 1 714 Kbps
Writing application : VirtualDubMod 1.5.10.2 (build 2542/release)
Writing library : VirtualDubMod build 2542/release
Original source form : MAX TORRENTZ

Video
ID : 0
Format : MPEG-4 Visual
Format profile : AdvancedSimple@L5
Format settings, BVOP : Yes
Format settings, QPel : No
Format settings, GMC : No warppoints
Format settings, Matrix : Default (H.263)
Codec ID : XVID
Codec ID/Hint : XviD
Duration : 1h 49mn
Bit rate : 1 325 Kbps
Width : 640 pixels
Height : 272 pixels
Display aspect ratio : 2.35:1
Frame rate : 23.976 fps
Resolution : 24 bits
Colorimetry : 4:2:0
Scan type : Progressive
Bits/(Pixel*Frame) : 0.318
Stream size : 880 MiB (77%)
Writing library : XviD 61

Audio
ID : 1
Format : AC-3
Format/Info : Audio Coding 3
Codec ID : 2000
Duration : 1h 49mn
Bit rate mode : Constant
Bit rate : 384 Kbps
Channel(s) : 6 channels
Channel positions : Front: L C R, Surround: L R, LFE
Sampling rate : 48.0 KHz
Stream size : 147 MiB (22%)
Alignment : Aligned on interleaves
Interleave, duration : 64 ms (1.54 video frames)
Interleave, preload duration : 192 ms


http://www.imdb.com/title/tt1706593/


Chronicle 2012


How To Get Your Maxspeed (uTorrent)

Torrent Client - Preferences - Bandwidth - Number of connections - Set aprox.

500 for each
Torrent Client - Preferences - BiTorrent - Protocol Encryption - Forced
Bandwidth Allocation - High (Set download/upload limit - Unlimited)
Stop Other Active Torrents - Start downloading and wait for connections.
Enjoy and Seed for at least 1:1 ratio. Don't forget to say thanks/leave

reviews.
Before downloading you should check/google search sample "release

name""sample".
Greets to all actual/future p2p/scene QUALITY groups and affiliate websites.
Don't trust IMDb robot or bad ratings,always watch some trailers first.
Ignore stupid comments/fake/mislabeled/no-DVDrips/CAM/TS/RAR uploads.
Please spread this release/torrent to your friends/forums/etc.
If you need translation subs visit some subtitles sites.
Report if you see online streaming or other spam links.
Recommended movie player VLC PLAYER.

Commentaires

0 Commentaires


Se Connecter | Créer un nouveau compte

Files

Nom du fichierTaille
video Chronicle 2012 FRENCH DVDRiP XViD-FWD.avi872.19 MB
video Chronicle.avi8.19 MB
nfo Release.nfo2.98 KB
text Torrent Downloaded From ExtraTorrent.com.txt353 Byte
image chronicle.png72.92 KB

Trackers

TrackerSeedsPeers
http://tracker.torrent.to:2710/announce 2 années ago14
http://tracker.publicbt.com/announce 2 années ago00
http://tracker.publicbt.com:80/announce 2 années ago11
http://pow7.com/announce 2 années ago00
http://tv.tracker.prq.to/announce 2 années ago00
http://10.rarbg.com/announce 2 années ago00

Partager ce torrent